osu file format v14

[General]
AudioFilename: Dead To The World.mp3
AudioLeadIn: 1500
PreviewTime: 67787
Countdown: 0
SampleSet: Normal
StackLeniency: 0.7
Mode: 0
LetterboxInBreaks: 0
WidescreenStoryboard: 1

[Editor]
Bookmarks: 5199,18732,40300,49180,54255,62713,67788,91470,99927,105002,113460,138834,142217,155749,169282,182814,206496,216646,224046,255340
DistanceSpacing: 1
BeatDivisor: 4
GridSize: 16
TimelineZoom: 2.699999

[Metadata]
Title:Dead to the World
TitleUnicode:Dead to the World
Artist:Nightwish
ArtistUnicode:Nightwish
Creator:Xanandra
Version:Shiro's Insane
Source:
Tags:tarja turunen power metal Sieg Shiro Odaril Nwolf Century Child
BeatmapID:430510
BeatmapSetID:149115

[Difficulty]
HPDrainRate:7
CircleSize:4
OverallDifficulty:7
ApproachRate:8
SliderMultiplier:1.92
SliderTickRate:2

[Events]
//Background and Video events
0,0,"bg.jpg",0,0
//Break Periods
2,37542,39034
2,142420,154903
2,209880,213263
//Storyboard Layer 0 (Background)
//Storyboard Layer 1 (Fail)
//Storyboard Layer 2 (Pass)
//Storyboard Layer 3 (Foreground)
//Storyboard Sound Samples
//Background Colour Transformations
3,100,0,0,0

[TimingPoints]
5203,422.892585283338,4,2,0,60,1,0
18735,-100,4,2,0,80,0,0
32268,-100,4,1,0,80,0,0
40303,-100,4,2,0,80,0,0
67791,-100,4,2,0,80,0,0
91473,-100,4,2,0,80,0,0
115155,-66.6666666666667,4,1,0,80,0,0
120229,-100,4,1,0,80,0,0
121921,-80,4,2,0,80,0,0
126996,-80,4,1,0,80,0,0
128687,-66.6666666666667,4,1,0,80,0,0
135453,-57.1428571428571,4,1,0,80,0,0
142220,-100,4,2,0,80,0,0
155752,-100,4,2,0,80,0,0
169285,-80,4,1,0,80,0,0
181972,-83.3333333333333,4,1,0,80,0,0
182183,-86.9565217391304,4,1,0,75,0,0
182394,-90.9090909090909,4,1,0,70,0,0
182606,-95.2380952380952,4,1,0,65,0,0
182817,-100,4,2,0,60,0,0
205759,-100,4,2,0,30,0,0
216649,-100,4,1,0,60,0,0
218129,-95.2380952380952,4,1,0,60,0,0
218340,-90.9090909090909,4,1,0,60,0,0
218552,-86.9565217391304,4,1,0,60,0,0
218763,-83.3333333333333,4,1,0,60,0,0
218975,-80,4,1,0,65,0,0
219186,-76.9230769230769,4,1,0,70,0,0
219398,-74.0740740740741,4,1,0,75,0,0
219609,-71.4285714285714,4,1,0,80,0,0
219820,-68.9655172413793,4,1,0,80,0,0
220032,-66.6666666666667,4,1,0,80,0,0
226798,-57.1428571428571,4,1,0,80,0,0
233564,-66.6666666666667,4,2,0,80,0,0
240331,-57.1428571428571,4,1,0,80,0,0
247097,-50,4,1,0,80,0,0

[Colours]
Combo1 : 255,255,0
Combo2 : 185,185,185
Combo3 : 245,0,0
Combo4 : 150,150,150

[HitObjects]
188,118,5202,6,0,B|160:90|160:90|96:90|96:90|68:62,2,144,4|0|0,1:3|0:0|0:0,0:0:0:0:
223,158,5943,1,2,0:0:0:0:
256,192,6048,2,0,L|256:339,2,144,,,0:0:0:0:
289,158,6788,1,2,0:0:0:0:
324,118,6894,2,0,B|352:90|352:90|416:90|416:90|444:62,2,144,0|0|0,0:3|0:0|0:0,0:0:0:0:
345,162,7634,1,2,0:0:0:0:
372,201,7740,1,0,0:0:0:0:
372,344,8057,1,0,0:0:0:0:
228,344,8374,1,0,1:0:0:0:
162,174,8586,6,0,B|144:128|144:128|105:122|105:122|83:62,2,144,0|0|0,1:0|0:0|0:0,0:0:0:0:
209,183,9326,1,2,0:0:0:0:
256,192,9431,2,0,L|256:128|256:48,2,144,,,0:0:0:0:
303,183,10171,1,2,0:0:0:0:
350,174,10277,2,0,B|368:128|368:128|407:122|407:122|429:62,2,144,0|0|0,1:0|0:0|0:0,0:0:0:0:
335,219,11017,1,0,0:0:0:0:
326,266,11123,2,0,L|306:363,1,96,0|0,1:0|0:0,0:0:0:0:
205,360,11546,2,0,L|186:266,1,96,0|0,1:0|0:0,0:0:0:0:
166,171,11969,1,0,0:0:0:0:
256,192,12392,12,0,15563,1:0:0:0:
253,33,17043,6,0,B|243:98|266:118|258:132|269:192|269:192|347:203|366:218|387:269,1,288,4|0,1:1|0:0,0:0:0:0:
418,335,17889,1,0,1:3:0:0:
256,306,18101,1,2,1:3:0:0:
94,335,18312,1,2,1:3:0:0:
256,306,18524,1,2,2:3:0:0:
256,306,18629,1,2,2:3:0:0:
256,306,18735,6,0,L|256:204,1,96,4|0,1:1|0:0,0:0:0:0:
251,186,19052,2,0,B|239:119|239:119|177:75,1,144,2|2,2:3|2:3,0:0:0:0:
266,42,19581,2,0,L|350:103,1,96,0|0,1:0|0:0,0:0:0:0:
348,122,19898,2,0,B|360:189|360:189|422:233,1,144,2|2,2:3|2:3,0:0:0:0:
333,266,20427,2,0,L|248:204,1,96,0|0,1:0|0:0,0:0:0:0:
251,186,20744,2,0,B|239:119|239:119|177:75,1,144,2|2,2:3|2:3,0:0:0:0:
159,169,21272,1,0,1:0:0:0:
153,192,21378,2,0,B|135:237|135:237|84:275,1,96,2|0,2:3|0:0,0:0:0:0:
75,275,21695,1,2,2:3:0:0:
44,183,21907,1,2,2:3:0:0:
44,183,22012,1,2,2:3:0:0:
44,183,22118,6,0,B|56:116|56:116|118:72,1,144,0|2,1:3|2:3,0:0:0:0:
256,121,22753,1,2,2:3:0:0:
343,83,22964,2,0,B|403:122|403:122|449:179,1,144,0|2,1:0|2:3,0:0:0:0:
323,249,23598,1,2,2:3:0:0:
228,233,23810,2,0,B|156:220|156:220|78:244,2,144,0|2|2,1:0|2:3|2:3,0:0:0:0:
323,249,24656,1,0,1:0:0:0:
418,262,24867,1,2,2:3:0:0:
459,174,25078,1,2,2:3:0:0:
388,108,25290,1,2,2:3:0:0:
306,154,25501,6,0,L|213:121,1,96,4|0,1:1|0:0,0:0:0:0:
192,113,25819,2,0,B|196:187|196:187|168:251,1,144,2|2,2:3|2:3,0:0:0:0:
270,243,26347,2,0,L|307:149,1,96,0|0,1:0|0:0,0:0:0:0:
330,153,26664,2,0,B|362:219|362:219|417:262,1,144,2|2,2:3|2:3,0:0:0:0:
336,313,27193,2,0,L|238:332,1,96,0|0,1:0|0:0,0:0:0:0:
218,335,27510,2,0,B|174:280|174:280|159:207,1,144,2|2,2:3|2:3,0:0:0:0:
168,112,28039,1,0,1:0:0:0:
192,113,28144,2,0,B|241:113|241:113|288:98,1,96,2|0,2:3|0:0,0:0:0:0:
308,89,28462,1,2,2:3:0:0:
395,127,28673,1,2,2:3:0:0:
395,127,28779,1,2,2:3:0:0:
395,127,28884,6,0,B|402:222|402:222|373:283,1,144,4|2,1:1|2:3,0:0:0:0:
256,192,29519,1,2,2:3:0:0:
192,112,29730,2,0,B|143:112|143:112|60:159,1,144,0|2,1:1|2:3,0:0:0:0:
176,244,30365,1,2,2:3:0:0:
256,192,30576,2,0,B|319:158|319:158|402:157,1,144,0|2,1:0|2:3,0:0:0:0:
444,294,31210,1,2,2:3:0:0:
352,320,31422,1,0,1:0:0:0:
328,323,31528,1,2,2:3:0:0:
304,325,31633,1,0,0:0:0:0:
280,327,31739,1,0,2:2:0:0:
256,327,31845,1,2,2:3:0:0:
232,327,31950,1,0,0:0:0:0:
208,326,32056,1,2,2:3:0:0:
184,323,32162,1,2,2:3:0:0:
160,320,32268,5,0,0:0:0:0:
64,154,32479,1,0,2:0:0:0:
256,154,32691,1,0,0:0:0:0:
351,320,32902,1,0,0:0:0:0:
448,154,33113,1,0,3:0:0:0:
256,230,33325,1,0,0:0:0:0:
208,58,33536,1,0,1:3:0:0:
232,57,33642,1,0,2:0:0:0:
256,57,33748,1,0,1:3:0:0:
280,57,33853,1,0,2:2:0:0:
304,59,33959,1,0,1:0:0:0:
256,192,34171,12,4,37342,0:0:0:0:
109,133,40303,5,0,0:0:0:0:
109,133,40725,6,0,B|172:103|244:125|281:178,1,192,6|0,0:0|1:0,0:0:0:0:
194,218,41360,2,0,B|176:151|211:83|271:56,1,192,2|0,0:0|0:0,0:0:0:0:
364,54,41994,1,2,1:2:0:0:
406,192,42206,1,2,0:0:0:0:
202,124,42417,2,0,B|163:111|123:120|94:143,1,96,2|0,0:0|0:0,0:0:0:0:
47,205,42840,1,2,1:2:0:0:
165,244,43051,1,2,0:0:0:0:
109,132,43263,2,0,B|96:92|66:64|30:52,1,96,2|0,0:0|0:0,0:0:0:0:
137,270,43686,2,0,B|149:309|179:337|215:349,1,96,2|0,1:2|0:0,0:0:0:0:
294,160,44109,6,0,B|340:104|421:96|477:136,1,192,2|0,0:0|1:0,0:0:0:0:
397,204,44743,2,0,B|358:147|369:73|416:29,1,192,,,0:0:0:0:
468,131,45377,1,2,1:2:0:0:
489,224,45589,1,0,0:0:0:0:
375,112,45800,2,0,B|354:83|320:69|287:70,1,96,2|0,0:0|0:0,0:0:0:0:
211,121,46223,1,2,1:2:0:0:
270,258,46435,2,0,B|285:290|283:325|268:354,1,96,2|0,0:0|0:0,0:0:0:0:
187,304,46857,1,0,0:0:0:0:
141,139,47069,2,0,B|114:116|78:109|46:118,1,96,2|0,1:2|0:0,0:0:0:0:
269,258,47492,6,0,B|315:204|324:131|299:71,1,192,2|0,0:0|1:0,0:0:0:0:
216,157,48126,2,0,B|281:187|352:175|403:135,1,192,2|0,0:0|0:0,0:0:0:0:
302,77,48760,1,0,1:0:0:0:
159,52,48972,1,0,0:0:0:0:
104,184,49183,5,0,0:0:0:0:
291,227,49395,1,0,0:0:0:0:
159,252,49606,1,0,1:0:0:0:
323,152,49818,1,0,0:0:0:0:
86,98,50029,5,0,0:0:0:0:
302,77,50241,1,0,0:0:0:0:
159,252,50452,1,0,1:0:0:0:
376,230,50663,1,0,1:0:0:0:
376,230,50769,1,0,1:0:0:0:
376,230,50875,6,0,B|407:229|407:229|438:216|438:216|477:216,2,96,4|0|0,1:1|0:0|0:0,0:0:0:0:
212,49,51509,2,0,B|163:97|169:177|224:217,1,192,4|0,1:1|0:0,0:0:0:0:
289,130,52144,1,0,1:0:0:0:
162,308,52355,1,0,0:0:0:0:
162,308,52461,1,0,0:0:0:0:
162,308,52566,6,0,B|130:308|130:308|102:316|102:316|64:316,1,96,4|0,1:1|0:0,0:0:0:0:
48,221,52989,1,0,1:0:0:0:
305,288,53201,2,0,B|298:220|244:171|181:163,1,192,4|0,1:1|0:0,0:0:0:0:
33,140,53835,1,0,1:0:0:0:
166,83,54047,1,0,1:0:0:0:
213,78,54152,1,0,1:0:0:0:
261,74,54258,6,0,B|327:106|376:158|404:218,1,192,6|0,2:2|1:0,0:0:0:0:
492,211,54892,2,0,B|425:195|359:204|303:232,1,192,2|0,2:2|0:0,0:0:0:0:
266,319,55527,1,2,1:2:0:0:
403,277,55738,1,0,0:0:0:0:
352,141,55950,2,0,B|299:150|254:178,1,96,2|0,0:0|0:0,0:0:0:0:
202,248,56373,1,2,1:2:0:0:
388,205,56584,1,2,0:0:0:0:
248,73,56795,2,0,B|208:76|177:102|165:136,1,96,2|0,0:0|0:0,0:0:0:0:
388,205,57218,2,0,B|428:202|459:176|471:142,1,96,2|0,1:2|0:0,0:0:0:0:
258,160,57641,6,0,B|185:156|130:97|126:28,1,192,2|0,0:0|1:0,0:0:0:0:
258,160,58276,2,0,B|290:225|267:302|209:339,1,192,2|0,0:0|0:0,0:0:0:0:
258,160,58910,2,0,B|279:127|311:108|346:102,1,96,2|0,1:2|0:0,0:0:0:0:
429,99,59333,1,2,0:0:0:0:
398,278,59544,1,0,0:0:0:0:
225,339,59756,1,0,1:0:0:0:
342,200,59967,2,0,B|373:175|416:175|446:196,1,96,2|0,0:0|0:0,0:0:0:0:
398,278,60390,1,2,0:0:0:0:
218,246,60601,1,0,1:0:0:0:
158,73,60813,1,0,2:0:0:0:
39,210,61024,6,0,B|24:247|33:287|58:315,1,96,2|0,0:0|0:0,0:0:0:0:
133,247,61447,1,0,1:0:0:0:
311,319,61659,1,2,0:0:0:0:
398,278,61870,2,0,B|411:241|405:203|386:173,1,96,0|0,0:0|0:0,0:0:0:0:
301,236,62293,1,0,1:0:0:0:
177,128,62504,1,0,0:0:0:0:
330,76,62716,5,0,0:0:0:0:
301,236,62927,1,0,0:0:0:0:
260,34,63139,1,0,1:0:0:0:
146,204,63350,1,0,0:0:0:0:
178,44,63562,1,0,0:0:0:0:
218,246,63773,1,0,0:0:0:0:
260,34,63985,1,0,1:0:0:0:
301,236,64196,1,0,1:0:0:0:
301,236,64302,1,0,1:0:0:0:
301,236,64407,6,0,B|325:224|325:224|366:221|366:221|393:207,1,96,4|0,1:1|0:0,0:0:0:0:
267,311,64830,1,0,0:0:0:0:
346,124,65042,2,0,B|388:178|405:243|400:305,1,192,4|0,1:1|0:0,0:0:0:0:
247,169,65676,1,0,1:0:0:0:
132,256,65888,1,0,0:0:0:0:
132,256,65993,1,0,0:0:0:0:
132,256,66099,6,0,B|109:241|109:241|84:208|84:208|58:193,1,96,4|0,1:1|0:0,0:0:0:0:
213,245,66522,1,0,1:0:0:0:
51,106,66733,2,0,B|151:58|262:64,1,192,4|0,1:1|1:0,0:0:0:0:
260,64,67262,1,0,1:0:0:0:
284,65,67368,1,0,1:0:0:0:
308,70,67473,1,0,1:0:0:0:
331,77,67579,1,0,1:0:0:0:
352,88,67685,1,0,1:0:0:0:
372,101,67791,6,0,B|407:133|407:133|421:190,1,96,6|0,1:2|0:0,0:0:0:0:
425,227,68108,1,0,0:0:0:0:
430,274,68213,2,0,L|442:373,1,96,2|0,1:2|0:0,0:0:0:0:
276,209,68636,2,0,L|288:308,1,96,2|0,1:2|0:0,0:0:0:0:
122,144,69059,1,2,1:2:0:0:
127,192,69165,1,0,0:0:0:0:
130,240,69271,2,2,L|138:342,1,96,0|2,1:2|2:0,0:0:0:0:
207,156,69694,1,0,1:2:0:0:
389,96,69905,1,2,0:0:0:0:
359,285,70117,2,0,L|281:347,1,96,0|2,1:2|0:0,0:0:0:0:
130,240,70539,1,0,1:0:0:0:
127,192,70645,1,0,0:0:0:0:
122,144,70751,2,0,L|114:43,1,96,2|0,1:2|0:0,0:0:0:0:
276,209,71174,6,0,B|270:160|270:160|297:116,1,96,2|0,1:2|0:0,0:0:0:0:
329,86,71491,1,0,0:0:0:0:
377,80,71597,2,0,L|383:176,1,96,2|0,1:2|0:0,0:0:0:0:
359,285,72020,2,0,L|263:323,1,96,2|0,1:2|0:0,0:0:0:0:
122,143,72442,1,2,1:2:0:0:
170,164,72548,1,0,0:0:0:0:
218,185,72654,2,0,L|344:234,1,96,0|2,1:0|0:0,0:0:0:0:
180,285,73077,1,0,1:0:0:0:
122,143,73288,1,2,0:0:0:0:
256,86,73500,2,0,L|382:135,1,96,0|2,1:0|0:0,0:0:0:0:
321,224,73923,1,2,0:2:0:0:
169,65,74134,1,2,1:2:0:0:
103,278,74345,1,2,1:2:0:0:
321,224,74557,5,4,1:0:0:0:
321,224,74980,2,0,L|361:319,1,96,2|0,1:2|0:0,0:0:0:0:
224,210,75403,2,0,L|262:299,1,96,2|0,1:2|0:0,0:0:0:0:
128,196,75826,1,2,1:2:0:0:
249,42,76037,1,2,1:2:0:0:
321,224,76248,5,4,1:1:0:0:
321,224,76671,2,0,L|299:324,1,96,2|0,1:2|0:0,0:0:0:0:
414,201,77094,1,2,1:2:0:0:
341,111,77306,1,2,0:0:0:0:
421,28,77517,1,0,1:0:0:0:
200,40,77729,1,2,1:2:0:0:
321,224,77940,5,4,1:1:0:0:
321,224,78363,2,0,L|245:294,1,96,0|0,1:2|0:0,0:0:0:0:
207,167,78786,2,0,L|108:168,1,96,2|0,1:2|0:0,0:0:0:0:
374,29,79209,2,0,L|473:28,1,96,2|0,1:2|0:0,0:0:0:0:
321,224,79632,5,6,1:2:0:0:
215,294,79843,1,0,0:0:0:0:
207,167,80054,1,2,1:2:0:0:
207,167,80160,1,0,0:0:0:0:
207,167,80266,1,2,1:2:0:0:
321,224,80477,5,4,0:0:0:0:
100,237,80689,1,2,1:2:0:0:
100,237,80795,1,0,0:0:0:0:
100,237,80900,1,2,1:2:0:0:
197,38,81112,1,0,1:0:0:0:
321,224,81323,6,0,B|348:263|348:263|401:275,1,96,6|0,1:2|0:0,0:0:0:0:
442,265,81640,1,0,0:0:0:0:
485,245,81746,2,0,L|505:141,1,96,2|0,0:0|0:0,0:0:0:0:
298,126,82169,2,0,L|318:22,1,96,2|0,1:2|0:0,0:0:0:0:
389,93,82592,1,2,1:2:0:0:
226,150,82803,2,0,L|125:184,1,96,0|2,1:0|0:0,0:0:0:0:
44,213,83226,1,0,1:0:0:0:
151,86,83438,1,2,0:0:0:0:
283,201,83649,2,0,L|363:270,1,96,0|2,1:0|0:0,0:0:0:0:
428,326,84072,1,0,1:2:0:0:
442,164,84283,1,2,1:2:0:0:
269,364,84495,1,0,0:0:0:0:
44,213,84706,6,0,B|32:158|61:103|112:80|160:86,1,192,2|2,1:2|0:0,0:0:0:0:
361,195,85341,1,0,1:0:0:0:
190,319,85552,1,2,0:0:0:0:
256,118,85764,1,0,1:0:0:0:
321,319,85975,1,2,1:2:0:0:
150,195,86186,1,0,0:0:0:0:
361,84,86398,2,0,B|415:82|461:116|478:167|468:212,1,192,2|2,1:2|0:0,0:0:0:0:
321,319,87032,2,0,L|249:243,1,96,0|2,1:0|0:0,0:0:0:0:
190,319,87455,1,0,1:0:0:0:
362,195,87667,2,0,L|289:118,1,96,2|0,1:2|0:0,0:0:0:0:
151,195,88089,6,0,B|123:230|79:243|40:233,1,96,6|0,1:2|0:0,0:0:0:0:
71,138,88512,1,2,0:0:0:0:
232,241,88724,2,0,B|270:253|289:293|277:330,2,96,0|2|0,1:0|0:0|0:0,0:0:0:0:
71,138,89358,2,0,B|33:126|14:86|26:49,1,96,2|0,1:2|0:0,0:0:0:0:
241,49,89781,6,0,B|302:31|366:62|392:122|380:177,1,192,6|2,1:2|0:0,0:0:0:0:
256,192,90415,1,0,0:0:0:0:
130,242,90627,2,0,B|138:310|206:354|271:335,1,192,2|2,1:2|0:0,0:0:0:0:
256,192,91261,1,0,0:0:0:0:
93,151,91473,6,0,B|61:132|44:101|41:67,1,96,6|0,0:0|0:0,0:0:0:0:
138,66,91895,1,0,1:0:0:0:
189,147,92107,1,2,0:0:0:0:
323,237,92318,2,0,B|353:262|394:263|425:246,1,96,,,0:0:0:0:
382,157,92741,1,2,1:2:0:0:
270,312,92953,1,2,0:0:0:0:
189,147,93164,2,0,B|208:115|239:98|273:95,1,96,2|0,0:0|0:0,0:0:0:0:
275,191,93587,2,0,B|256:223|225:240|191:243,1,96,2|0,1:2|0:0,0:0:0:0:
266,96,94010,2,0,B|301:87|336:96|362:118,1,96,2|0,0:0|0:0,0:0:0:0:
198,242,94433,2,0,B|162:250|127:241|101:219,1,96,2|0,1:2|0:0,0:0:0:0:
266,288,94856,6,0,L|371:327,1,96,2|0,0:0|0:0,0:0:0:0:
440,277,95279,1,0,1:0:0:0:
439,107,95490,1,2,0:0:0:0:
266,96,95702,2,0,L|181:149,1,96,,,0:0:0:0:
198,242,96124,1,2,1:2:0:0:
282,196,96336,1,0,0:0:0:0:
108,206,96547,2,0,B|93:242|104:282|130:307,2,96,2|0|0,0:0|0:0|1:0,0:0:0:0:
282,196,97182,2,0,B|309:225|349:231|382:217,2,96,2|0|0,0:0|0:0|0:0,2:0:0:0:
200,144,97816,1,2,1:2:0:0:
280,293,98027,1,0,0:0:0:0:
369,149,98239,6,0,L|416:58,1,96,2|0,0:0|0:0,0:0:0:0:
462,146,98662,1,0,1:0:0:0:
316,66,98873,1,2,0:0:0:0:
228,237,99085,2,0,L|275:146,1,96,,,0:0:0:0:
321,234,99508,1,0,1:0:0:0:
175,154,99719,1,0,0:0:0:0:
90,326,99930,5,0,0:0:0:0:
278,316,100142,1,0,0:0:0:0:
150,164,100353,1,0,1:0:0:0:
338,154,100565,1,0,0:0:0:0:
182,295,100776,1,0,0:0:0:0:
242,112,100988,1,0,0:0:0:0:
372,313,101199,1,0,1:0:0:0:
432,130,101411,1,0,1:0:0:0:
432,130,101516,1,0,1:0:0:0:
432,130,101622,6,0,B|456:87|456:87|435:38,1,96,4|0,1:1|0:0,0:0:0:0:
343,38,102045,1,0,0:0:0:0:
376,229,102256,2,0,B|307:227|253:176|242:112,1,192,4|0,1:1|0:0,0:0:0:0:
242,250,102891,1,0,1:0:0:0:
32,192,103102,1,0,0:0:0:0:
32,192,103208,1,0,0:0:0:0:
32,192,103314,6,0,B|38:143|38:143|84:117,1,96,4|0,1:1|0:0,0:0:0:0:
144,192,103736,1,0,1:0:0:0:
311,75,103948,2,0,B|312:146|282:210|236:255,1,192,4|0,1:1|0:0,0:0:0:0:
144,192,104582,1,0,1:0:0:0:
243,356,104794,1,0,1:0:0:0:
290,355,104899,1,0,1:0:0:0:
337,346,105005,6,0,B|379:337|412:311|431:278,1,96,6|0,0:0|0:0,0:0:0:0:
436,202,105428,1,0,1:0:0:0:
393,116,105639,1,2,0:0:0:0:
256,160,105851,2,0,B|220:158|191:137|176:108,1,96,2|0,0:0|0:0,0:0:0:0:
261,63,106274,1,2,1:2:0:0:
487,121,106485,1,2,0:0:0:0:
330,262,106697,2,0,B|297:278|261:279|230:268,1,96,2|0,0:0|0:0,0:0:0:0:
70,194,107120,2,0,B|101:209|134:211|165:203,1,96,2|0,1:2|0:0,0:0:0:0:
350,151,107543,2,0,B|317:167|281:168|250:157,1,96,2|0,0:0|0:0,0:0:0:0:
82,97,107965,2,0,B|113:112|146:114|177:106,1,96,2|0,1:2|0:0,0:0:0:0:
366,77,108388,6,0,B|404:86|428:122|424:159,1,96,2|0,0:0|0:0,0:0:0:0:
395,237,108811,1,0,1:0:0:0:
330,166,109023,1,2,0:0:0:0:
487,215,109234,2,0,B|502:251|486:291|454:310,1,96,2|0,0:0|0:0,0:0:0:0:
310,181,109657,1,2,1:2:0:0:
508,199,109868,1,2,0:0:0:0:
290,196,110080,2,0,B|256:209|221:202|194:183,1,96,2|0,0:0|0:0,0:0:0:0:
254,107,110503,1,2,1:2:0:0:
385,208,110714,2,0,B|412:231|424:265|421:297,1,96,2|0,0:0|0:0,0:0:0:0:
326,284,111137,1,0,0:0:0:0:
254,107,111349,2,0,B|259:71|283:44|313:30,1,96,2|0,1:2|0:0,0:0:0:0:
349,120,111771,6,0,L|445:108,1,96,2|0,2:2|0:0,0:0:0:0:
480,197,112194,1,0,1:0:0:0:
326,284,112406,1,0,0:0:0:0:
195,204,112617,2,0,L|98:215,1,96,2|0,2:2|0:0,0:0:0:0:
64,127,113040,1,0,1:0:0:0:
246,280,113252,1,0,0:0:0:0:
349,120,113463,5,0,0:0:0:0:
328,285,113674,1,0,0:0:0:0:
163,264,113886,1,0,1:0:0:0:
184,99,114097,1,0,0:0:0:0:
328,285,114309,5,0,1:0:0:0:
256,192,114520,1,0,1:0:0:0:
232,188,114626,1,0,1:0:0:0:
208,185,114732,1,0,1:0:0:0:
184,181,114837,1,0,1:0:0:0:
160,178,114943,1,0,1:0:0:0:
137,174,115049,1,0,1:0:0:0:
113,171,115155,6,2,B|84:217|84:217|54:238|54:238|26:288,1,144.000005493164,6|0,0:0|2:0,0:0:0:0:
170,304,115577,1,2,1:3:0:0:
260,73,115789,2,2,B|340:76|400:150|386:236|331:282,1,288.000010986329,6|0,0:0|2:0,0:0:0:0:
157,128,116423,1,2,1:3:0:0:
256,343,116635,1,0,2:0:0:0:
400,181,116846,2,2,B|425:229|425:229|454:252|454:252|478:303,1,144.000005493164,6|0,0:0|2:0,0:0:0:0:
333,309,117269,1,2,1:3:0:0:
260,74,117480,2,2,B|180:71|115:140|124:228|176:277,1,288.000010986329,6|0,0:0|2:0,0:0:0:0:
359,135,118115,1,2,1:3:0:0:
256,343,118326,1,0,1:0:0:0:
256,343,118432,1,0,1:0:0:0:
256,343,118538,6,2,B|189:368|189:368|78:364|45:223,1,288.000010986329,6|2,0:0|1:3,0:0:0:0:
179,279,119172,2,2,B|246:255|246:255|317:229|323:121|256:72,1,288.000010986329,2|0,0:0|1:3,0:0:0:0:
194,164,119806,1,2,1:3:0:0:
411,180,120018,1,0,0:0:0:0:
194,164,120229,1,0,0:0:0:0:
104,92,120441,1,0,0:0:0:0:
179,279,120652,1,2,1:3:0:0:
304,137,120864,2,0,L|241:61,1,96,0|0,0:0|2:0,0:0:0:0:
194,164,121287,1,0,0:0:0:0:
289,360,121498,1,2,1:3:0:0:
411,180,121709,1,0,0:0:0:0:
320,250,121921,6,0,B|352:268|352:268|379:307|379:307|424:331,2,120,6|0|2,1:2|0:0|2:3,0:0:0:0:
115,78,122555,2,0,B|164:33|239:33|290:79|303:136,1,240,6|0,1:2|0:0,0:0:0:0:
206,209,123190,1,2,2:3:0:0:
411,180,123401,1,0,1:0:0:0:
411,180,123507,1,0,1:0:0:0:
411,180,123612,2,0,B|443:162|443:162|470:122|470:122|515:99,2,120,6|0|2,1:2|0:0|2:3,0:0:0:0:
124,300,124247,2,0,B|173:345|247:347|300:306|319:251,1,240,6|0,1:2|0:0,0:0:0:0:
364,137,124881,1,2,2:3:0:0:
159,166,125093,1,0,1:0:0:0:
159,166,125198,1,0,1:0:0:0:
159,166,125304,5,4,1:2:0:0:
286,329,125515,1,0,0:0:0:0:
364,137,125727,1,2,2:3:0:0:
159,166,125938,2,0,L|202:303,1,120,0|0,1:0|0:0,0:0:0:0:
393,342,126361,1,0,1:0:0:0:
469,150,126573,1,2,2:3:0:0:
266,179,126784,1,2,1:3:0:0:
266,179,126890,1,0,1:0:0:0:
266,179,126996,6,0,L|223:223,1,60,0|0,0:0|2:0,0:0:0:0:
159,166,127207,1,0,0:0:0:0:
159,166,127313,2,0,L|116:210,1,60,0|0,0:0|2:0,0:0:0:0:
219,91,127524,1,0,0:0:0:0:
219,91,127630,2,0,L|262:47,1,60,0|0,0:0|2:0,0:0:0:0:
323,104,127841,1,0,0:0:0:0:
323,104,127947,2,0,L|366:60,1,60,0|0,0:0|2:0,0:0:0:0:
365,194,128159,1,0,0:0:0:0:
365,194,128264,2,0,L|409:237,1,60,0|0,0:0|2:0,0:0:0:0:
301,286,128476,1,0,0:0:0:0:
301,286,128581,1,0,0:0:0:0:
301,286,128687,6,2,B|253:305|253:305|215:297|215:297|150:322,1,144.000005493164,6|0,0:0|0:0,0:0:0:0:
33,246,129110,1,2,1:3:0:0:
365,194,129321,2,2,B|359:114|275:60|187:95|160:163,1,288.000010986329,6|0,0:0|0:0,0:0:0:0:
210,347,129956,1,2,1:3:0:0:
410,295,130167,1,0,0:0:0:0:
410,295,130273,1,0,0:0:0:0:
410,295,130379,2,2,B|431:253|431:253|467:223|467:223|500:161,1,144.000005493164,2|0,0:0|0:0,2:0:0:0:
502,368,130802,1,2,1:3:0:0:
210,347,131013,2,2,B|171:269|219:171|321:156|384:206,1,288.000010986329,2|0,0:0|0:0,0:0:0:0:
502,369,131647,1,2,1:3:0:0:
479,204,131859,1,0,0:0:0:0:
479,204,131965,1,0,0:0:0:0:
479,204,132070,6,2,B|468:155|468:155|443:114|443:114|432:60,1,144.000005493164,6|0,0:0|0:0,0:0:0:0:
293,99,132493,1,2,1:3:0:0:
364,224,132705,2,2,B|373:269|373:269|398:310|398:310|408:358,1,144.000005493164,2|0,0:0|0:0,0:0:0:0:
223,254,133128,1,2,0:0:0:0:
293,99,133339,1,2,1:3:0:0:
364,224,133550,1,0,0:0:0:0:
152,129,133762,1,2,0:0:0:0:
92,336,133973,1,0,0:0:0:0:
302,282,134185,1,2,1:3:0:0:
189,58,134396,2,0,B|154:39|111:46|84:74|75:108,1,144.000005493164,0|0,0:0|2:0,0:0:0:0:
293,99,134819,1,0,0:0:0:0:
193,291,135031,1,2,1:3:0:0:
75,109,135242,1,0,0:0:0:0:
293,99,135453,6,2,B|344:86|344:86|405:95|405:95|481:73,1,168.000001602173,6|0,0:0|0:0,0:0:0:0:
392,256,135876,1,0,0:0:0:0:
189,58,136088,2,2,B|128:138|133:247|197:325|280:351,1,336.000003204346,6|0,0:0|0:0,0:0:0:0:
392,256,136722,1,2,1:3:0:0:
258,342,136934,1,0,0:0:0:0:
392,256,137145,1,6,0:0:0:0:
189,58,137356,1,2,0:0:0:0:
189,58,137568,1,2,1:3:0:0:
392,256,137779,2,2,B|350:340|249:373|160:332|122:259,1,336.000003204346,6|0,0:0|0:0,0:0:0:0:
323,58,138414,1,2,1:3:0:0:
255,263,138625,1,2,1:3:0:0:
255,263,138731,1,2,1:3:0:0:
255,263,138837,5,2,1:1:0:0:
189,58,139048,1,0,1:3:0:0:
364,185,139259,1,2,1:3:0:0:
148,185,139471,1,0,1:3:0:0:
323,312,139682,1,0,0:0:0:0:
255,107,139894,1,0,1:1:0:0:
189,312,140105,1,2,1:3:0:0:
364,185,140317,1,0,1:3:0:0:
148,185,140528,5,4,0:0:0:0:
341,96,140740,2,0,B|377:75|377:75|401:110,1,84.0000008010864,,,0:0:0:0:
171,96,141057,2,0,B|135:75|135:75|110:110,1,84.0000008010864,,,0:0:0:0:
115,266,141374,1,0,0:0:0:0:
397,266,141585,1,2,1:3:0:0:
256,192,141797,2,0,L|256:288,2,84.0000008010864,,,0:0:0:0:
256,192,142220,1,4,1:1:0:0:
128,135,155752,5,2,0:0:0:0:
211,86,155964,2,0,L|277:161,1,96,0|0,1:0|0:0,0:0:0:0:
128,135,156387,2,0,L|194:210,1,96,2|0,1:2|0:0,0:0:0:0:
45,184,156809,1,0,1:0:0:0:
108,256,157021,1,0,0:0:0:0:
108,256,157127,1,0,0:0:0:0:
108,256,157232,1,0,1:0:0:0:
255,330,157444,5,2,0:0:0:0:
350,320,157655,1,0,1:0:0:0:
497,228,157867,1,2,0:0:0:0:
402,238,158078,1,0,1:0:0:0:
256,165,158290,1,2,0:0:0:0:
351,155,158501,1,0,1:0:0:0:
204,246,158713,1,2,0:0:0:0:
108,256,158924,1,0,1:0:0:0:
307,241,159135,5,2,2:1:0:0:
444,151,159347,1,0,1:0:0:0:
444,151,159453,1,2,2:1:0:0:
296,79,159664,1,0,0:0:0:0:
296,79,159770,1,2,1:1:0:0:
159,169,159981,1,2,2:1:0:0:
307,241,160193,2,0,L|311:302,2,48,0|0|0,1:0|0:0|0:0,0:0:0:0:
256,165,160616,1,0,1:0:0:0:
203,84,160827,6,0,L|171:38,3,48,2|0|0|0,0:0|0:0|1:0|0:0,0:0:0:0:
176,124,161250,2,0,L|120:114,3,48,2|0|0|0,0:0|0:0|1:0|0:0,0:0:0:0:
159,169,161673,2,0,L|112:201,3,48,2|0|0|0,0:0|0:0|1:0|0:0,0:0:0:0:
188,211,162096,2,0,L|177:266,3,48,2|0|0|0,0:0|0:0|1:0|0:0,0:0:0:0:
242,215,162519,5,2,0:0:0:0:
337,204,162730,2,0,L|383:117,1,96,0|0,1:0|0:0,0:0:0:0:
242,215,163153,2,0,L|288:128,1,96,2|0,1:2|0:0,0:0:0:0:
147,226,163576,1,0,1:0:0:0:
191,141,163787,1,0,0:0:0:0:
191,141,163893,1,0,0:0:0:0:
191,141,163999,1,0,1:0:0:0:
234,55,164210,5,2,0:0:0:0:
138,62,164422,1,0,1:0:0:0:
147,226,164633,1,2,0:0:0:0:
102,310,164844,1,0,1:0:0:0:
242,215,165056,1,2,0:0:0:0:
287,131,165267,1,0,1:0:0:0:
306,281,165479,1,2,2:0:0:0:
392,241,165690,1,0,1:0:0:0:
207,316,165902,5,6,2:1:0:0:
191,141,166113,1,0,1:0:0:0:
191,141,166219,1,2,2:1:0:0:
380,148,166430,1,0,0:0:0:0:
380,148,166536,1,2,1:1:0:0:
395,322,166747,1,2,2:1:0:0:
207,316,166959,2,0,L|159:360,2,48,0|0|0,1:0|0:0|0:0,0:0:0:0:
291,235,167382,1,0,1:0:0:0:
287,142,167593,6,0,B|290:101|264:65|228:52,1,96,0|0,1:0|2:0,0:0:0:0:
192,141,167910,2,0,B|161:168|154:212|170:246,1,96,0|0,1:0|2:0,0:0:0:0:
261,212,168228,2,0,B|258:253|284:289|320:302,1,96,0|0,1:0|2:0,0:0:0:0:
357,209,168545,2,0,B|385:239|428:246|462:230,1,96,0|0,1:0|2:0,0:0:0:0:
426,139,168862,1,0,1:0:0:0:
192,141,169073,1,0,1:0:0:0:
192,141,169179,1,0,1:0:0:0:
192,140,169285,6,2,B|102:125|102:125|43:56,1,180,6|0,2:1|2:0,0:0:0:0:
152,54,169708,2,2,L|271:76,1,120,0|0,0:0|2:0,0:0:0:0:
312,287,170131,1,2,2:1:0:0:
323,280,170236,1,0,2:1:0:0:
335,274,170342,1,0,2:1:0:0:
347,268,170448,1,0,2:1:0:0:
359,262,170554,2,2,B|378:250|378:250|391:232|391:232|422:232|422:232|436:215|436:215|465:201,1,120,2|0,0:0|2:0,0:0:0:0:
200,287,170976,2,2,B|110:272|110:272|51:203,1,180,2|0,2:1|2:0,0:0:0:0:
160,201,171399,1,0,0:0:0:0:
336,162,171611,1,0,2:0:0:0:
472,45,171822,2,2,L|316:73,1,120,2|0,2:1|2:0,0:0:0:0:
339,68,172139,1,2,2:1:0:0:
324,71,172245,2,2,L|268:36,3,60,0|0|0|0,1:0|2:0|2:0|2:0,2:0:0:0:
237,87,172668,6,2,B|147:103|147:103|86:172,1,180,2|0,2:1|2:0,0:0:0:0:
189,178,173091,2,2,L|306:153,1,120,0|0,0:0|2:0,0:0:0:0:
232,247,173514,2,0,L|115:272,1,120,2|0,0:0|2:0,0:0:0:0:
258,275,173831,2,0,L|141:300,1,120,2|0,0:0|2:0,0:0:0:0:
288,302,174148,2,2,L|171:327,1,120,0|0,0:0|2:0,0:0:0:0:
143,190,174571,2,2,L|100:194,16,30,2|0|0|0|0|0|0|0|0|0|0|0|0|0|0|0|2,0:0|2:0|2:0|2:0|2:0|2:0|2:0|2:0|2:0|2:0|2:0|2:0|2:0|2:0|2:0|2:0|2:1,0:0:0:0:
171,179,175522,1,2,2:1:0:0:
193,159,175628,1,2,1:1:0:0:
206,132,175734,1,2,2:1:0:0:
219,105,175840,1,2,2:1:0:0:
241,85,175945,1,2,2:1:0:0:
269,76,176051,5,6,2:1:0:0:
242,307,176263,1,6,2:2:0:0:
256,192,176474,1,0,1:0:0:0:
256,192,176685,1,0,0:0:0:0:
369,196,176897,1,6,2:1:0:0:
143,188,177108,1,6,2:2:0:0:
242,307,177320,1,2,1:1:0:0:
270,298,177426,1,2,2:1:0:0:
292,278,177531,1,2,2:1:0:0:
305,251,177637,1,2,2:1:0:0:
318,224,177743,5,4,2:1:0:0:
30,184,177954,1,6,2:2:0:0:
130,302,178166,1,0,0:0:0:0:
130,302,178377,1,0,0:0:0:0:
193,159,178588,1,6,2:1:0:0:
482,200,178800,1,6,2:2:0:0:
365,85,179011,1,2,1:1:0:0:
341,104,179117,1,0,2:1:0:0:
330,132,179223,1,0,2:1:0:0:
328,162,179329,1,0,2:1:0:0:
326,192,179434,6,0,B|310:253|310:253|266:302,1,120,6|0,2:1|2:0,0:0:0:0:
168,233,179857,1,0,0:0:0:0:
35,200,180069,2,0,B|51:139|51:139|95:90,1,120,2|0,2:1|2:0,0:0:0:0:
193,159,180491,1,2,2:1:0:0:
266,64,180703,2,0,B|322:35|322:35|387:34,1,120,0|0,1:1|2:0,0:0:0:0:
432,142,181126,2,2,L|436:278,1,120,2|0,0:0|2:0,0:0:0:0:
400,178,181443,2,2,L|404:314,1,120,2|0,0:0|2:0,0:0:0:0:
367,215,181760,1,2,0:0:0:0:
370,334,181972,1,2,0:0:0:0:
265,276,182183,1,0,0:0:0:0:
253,271,182394,1,0,0:0:0:0:
241,266,182606,1,0,0:0:0:0:
229,261,182817,6,0,B|197:238|157:235|123:248,2,96,2|0|0,3:2|0:0|0:0,0:0:0:0:
169,337,183452,1,2,0:0:0:0:
75,317,183663,2,0,B|32:281|25:219|58:171|104:155,1,192,0|2,1:0|0:0,0:0:0:0:
187,124,184298,1,0,3:0:0:0:
269,173,184509,2,0,B|295:224|357:244|411:219|435:175,1,192,2|0,0:0|3:0,0:0:0:0:
353,126,185143,1,2,0:0:0:0:
271,78,185355,1,0,1:0:0:0:
187,124,185566,2,0,B|166:155|168:194|188:222,1,96,2|0,0:0|0:0,0:0:0:0:
269,173,185989,1,2,0:0:0:0:
184,29,186201,5,2,3:2:0:0:
184,29,186412,1,0,3:2:0:0:
353,126,186835,1,0,0:0:0:0:
269,173,187046,2,0,B|221:208|210:274|245:325|294:342,1,192,2|0,1:2|0:0,0:0:0:0:
325,252,187681,2,0,L|132:259,1,192,2|0,3:2|0:0,0:0:0:0:
72,184,188315,2,0,B|47:158|44:121|60:92,1,96,2|0,3:2|0:0,0:0:0:0:
147,129,188738,1,2,1:2:0:0:
147,129,189161,1,0,0:0:0:0:
325,252,189584,5,2,3:2:0:0:
325,252,189795,2,0,L|419:211,1,96,0|0,3:0|0:0,0:0:0:0:
256,102,190429,1,2,1:2:0:0:
238,293,190852,1,0,0:0:0:0:
325,252,191064,1,0,3:0:0:0:
238,293,191487,1,0,0:0:0:0:
325,252,191698,1,0,3:0:0:0:
168,140,192121,2,0,B|138:120|100:121|71:138,1,96,2|0,1:2|0:0,0:0:0:0:
117,221,192544,2,0,B|147:241|185:240|214:223,1,96,2|0,0:0|0:0,0:0:0:0:
265,148,192967,5,2,3:2:0:0:
265,148,193178,2,0,B|317:116|383:126|426:169|438:220,1,192,,,0:0:0:0:
397,287,193813,1,0,1:0:0:0:
211,333,194235,1,0,0:0:0:0:
185,240,194447,2,0,B|146:201|84:198|39:234|26:280,1,192,0|0,3:0|0:0,0:0:0:0:
117,309,195081,1,0,3:0:0:0:
103,117,195504,2,0,L|58:79,2,48,0|0|0,1:0|1:0|0:0,0:0:0:0:
195,142,195927,2,0,L|272:77,1,96,0|0,1:0|0:0,0:0:0:0:
279,263,196350,5,2,3:2:0:0:
279,263,196561,2,0,B|305:293|343:305|379:299,1,96,0|0,3:0|0:0,0:0:0:0:
457,278,196984,1,2,0:0:0:0:
500,192,197196,1,0,1:0:0:0:
404,195,197407,1,2,0:0:0:0:
447,109,197619,2,0,B|446:74|427:45|400:28,1,96,2|0,0:0|3:0,0:0:0:0:
350,111,198042,2,0,B|286:135|220:133|162:111,1,192,2|0,0:0|3:0,0:0:0:0:
86,50,198676,1,2,0:0:0:0:
72,146,198887,2,0,B|100:208|149:253|205:279,1,192,0|2,1:0|0:0,0:0:0:0:
447,109,199733,5,0,3:0:0:0:
384,182,199945,2,0,L|384:279,2,96,0|2|0,3:0|0:0|0:0,0:0:0:0:
354,90,200579,2,0,B|292:57|220:68|171:111,1,192,0|2,1:0|0:0,0:0:0:0:
236,181,201213,2,0,B|183:224|113:228|57:200,1,192,0|0,3:0|0:0,0:0:0:0:
61,102,201848,1,0,3:0:0:0:
236,182,202270,2,0,B|257:249|323:287|388:278,1,192,0|2,1:0|0:0,0:0:0:0:
384,182,202905,1,2,0:0:0:0:
256,324,203116,5,0,3:0:0:0:
256,324,203328,1,0,3:0:0:0:
128,182,203751,1,2,0:0:0:0:
176,96,203962,2,0,B|204:51|260:34|310:55|335:94,1,192,0|2,1:0|0:0,0:0:0:0:
384,182,204596,1,0,3:0:0:0:
384,182,204808,1,2,0:0:0:0:
202,243,205231,1,0,3:0:0:0:
78,95,205654,1,2,0:0:0:0:
176,96,205865,1,0,1:0:0:0:
285,188,206076,1,0,1:0:0:0:
202,243,206288,1,0,1:0:0:0:
259,41,206499,1,4,1:1:0:0:
120,144,216649,6,0,B|206:100|206:100|314:102,1,192,4|0,0:0|2:0,0:0:0:0:
387,143,217283,2,0,L|451:226,1,96,0|0,0:0|2:0,0:0:0:0:
350,233,217706,2,0,L|350:336,2,96,0|0|0,0:0|2:0|2:0,0:0:0:0:
319,55,218340,5,0,0:0:0:0:
277,157,218552,1,0,0:0:0:0:
319,55,218763,1,0,0:0:0:0:
273,166,218975,1,0,0:0:0:0:
319,55,219186,1,0,0:0:0:0:
269,175,219398,1,0,0:0:0:0:
319,55,219609,1,0,0:0:0:0:
352,59,219715,1,0,0:0:0:0:
386,63,219820,1,0,0:0:0:0:
410,87,219926,1,0,0:0:0:0:
435,112,220032,6,2,B|461:138|461:138|479:194|479:194|519:232,1,144.000005493164,6|0,0:0|0:0,0:0:0:0:
349,229,220455,1,2,1:3:0:0:
134,309,220666,2,2,B|104:235|132:152|199:108|269:107,1,288.000010986329,6|0,0:0|0:0,0:0:0:0:
349,229,221301,1,2,1:3:0:0:
435,112,221512,1,0,0:0:0:0:
303,283,221724,1,6,0:0:0:0:
12,227,221935,2,2,B|11:183|11:183|44:141|44:141|44:71,1,144.000005493164,2|2,0:0|1:3,0:0:0:0:
134,309,222358,2,2,B|214:308|280:251|296:173|271:108,1,288.000010986329,6|0,0:0|0:0,0:0:0:0:
122,158,222992,1,2,1:3:0:0:
8,372,223204,1,0,0:0:0:0:
122,158,223415,6,2,B|157:96|157:96|189:30|217:-3|300:2|322:43|331:81,1,288.000010986329,6|0,0:0|0:0,0:0:0:0:
404,191,224049,2,2,B|369:253|369:253|337:319|309:352|226:347|204:306|195:268,1,288.000010986329,2|0,0:0|0:0,0:0:0:0:
271,106,224684,1,0,0:0:0:0:
272,249,224895,1,0,0:0:0:0:
271,106,225107,5,4,0:0:0:0:
122,185,225318,1,0,0:0:0:0:
122,158,225424,2,0,L|123:87,1,72.0000027465821,0|0,0:0|2:0,0:0:0:0:
195,230,225635,1,0,0:0:0:0:
195,203,225741,2,0,L|196:132,1,72.0000027465821,0|0,0:0|2:0,0:0:0:0:
266,274,225952,1,0,0:0:0:0:
266,247,226058,2,0,L|267:176,1,72.0000027465821,0|0,0:0|2:0,0:0:0:0:
336,321,226270,1,0,0:0:0:0:
336,294,226375,2,0,L|337:223,1,72.0000027465821,,,0:0:0:0:
409,275,226587,2,0,L|410:204,1,72.0000027465821,,,0:0:0:0:
484,232,226798,6,2,B|485:183|485:183|468:119|468:119|469:55,1,168.000001602173,6|0,0:0|0:0,0:0:0:0:
337,222,227221,1,2,1:3:0:0:
158,320,227433,2,2,B|109:241|120:142|178:72|253:44,1,336.000003204346,6|0,0:0|0:0,0:0:0:0:
337,222,228067,1,2,1:3:0:0:
233,353,228278,1,0,0:0:0:0:
38,235,228490,2,2,B|37:186|37:186|54:122|54:122|53:58,1,168.000001602173,6|0,0:0|0:0,0:0:0:0:
171,189,228913,1,2,1:3:0:0:
353,320,229124,2,2,B|402:241|391:142|333:72|258:44,1,336.000003204346,6|0,0:0|0:0,0:0:0:0:
171,189,229758,1,2,1:3:0:0:
270,324,229970,1,0,0:0:0:0:
474,235,230181,6,2,B|475:186|475:186|458:122|458:122|459:58,1,168.000001602173,6|0,0:0|0:0,0:0:0:0:
290,70,230604,1,2,1:3:0:0:
408,281,230816,2,2,B|349:353|237:355|169:277|171:193,1,336.000003204346,6|0,0:0|0:0,0:0:0:0:
290,70,231450,1,2,1:3:0:0:
450,118,231661,1,0,0:0:0:0:
171,189,231873,1,0,0:0:0:0:
332,234,232084,1,0,0:0:0:0:
290,70,232296,1,2,1:3:0:0:
213,351,232507,2,0,B|130:362|130:362|59:318,1,168.000001602173,0|0,0:0|2:0,0:0:0:0:
171,189,232930,1,0,0:0:0:0:
290,70,233142,1,2,1:3:0:0:
332,234,233353,1,0,1:3:0:0:
332,234,233459,1,0,1:3:0:0:
332,234,233564,6,0,B|358:264|358:264|374:330|374:330|418:367,1,144.000005493164,6|0,1:2|0:0,0:0:0:0:
475,229,233987,1,2,2:3:0:0:
219,83,234199,2,0,B|154:162|156:271|211:348,1,288.000010986329,6|0,1:2|0:0,0:0:0:0:
332,234,234833,1,2,2:3:0:0:
212,350,235045,1,0,0:0:0:0:
332,234,235256,6,0,B|333:193|333:193|366:134|366:134|360:77,1,144.000005493164,6|0,1:2|0:0,0:0:0:0:
219,83,235679,1,2,2:3:0:0:
447,158,235890,2,0,B|384:239|277:261|190:224,1,288.000010986329,6|0,1:2|0:0,0:0:0:0:
82,123,236525,1,2,2:3:0:0:
219,83,236736,1,0,1:0:0:0:
219,83,236842,1,0,1:0:0:0:
219,83,236948,1,6,1:2:0:0:
64,225,237159,1,0,0:0:0:0:
256,326,237371,1,2,2:3:0:0:
447,225,237582,2,0,L|446:67,1,144.000005493164,0|0,1:0|0:0,0:0:0:0:
319,150,238005,1,0,1:0:0:0:
358,288,238216,1,2,2:3:0:0:
154,96,238428,1,4,0:0:0:0:
64,225,238639,5,0,1:0:0:0:
96,243,238745,2,0,L|237:316,1,144.000005493164,2|0,2:3|2:0,0:0:0:0:
256,327,239062,1,2,2:3:0:0:
291,319,239168,1,0,0:0:0:0:
326,312,239274,1,0,0:0:0:0:
361,305,239379,1,0,0:0:0:0:
396,297,239485,1,0,1:0:0:0:
429,281,239591,2,0,L|442:130,1,144.000005493164,2|0,2:3|0:0,0:0:0:0:
409,123,239908,1,2,2:3:0:0:
373,115,240014,1,0,0:0:0:0:
338,108,240119,1,0,0:0:0:0:
303,101,240225,1,0,0:0:0:0:
268,93,240331,6,2,B|222:104|222:104|151:88|151:88|44:117,1,168.000001602173,6|0,0:0|0:0,0:0:0:0:
30,251,240754,1,2,1:3:0:0:
267,92,240965,2,2,B|338:152|339:263|263:332|180:333,1,336.000003204346,6|0,0:0|0:0,0:0:0:0:
184,80,241599,1,0,0:0:0:0:
204,82,241705,1,0,0:0:0:0:
225,85,241811,1,0,0:0:0:0:
246,88,241917,1,0,0:0:0:0:
267,92,242022,6,2,B|311:101|311:101|383:85|383:85|456:100,1,168.000001602173,6|0,0:0|0:0,0:0:0:0:
497,249,242445,1,2,1:3:0:0:
184,80,242657,2,2,B|155:169|189:263|264:317|344:325,1,336.000003204346,6|0,0:0|0:0,0:0:0:0:
350,78,243291,1,0,0:0:0:0:
329,81,243397,1,0,0:0:0:0:
308,84,243502,1,0,0:0:0:0:
287,88,243608,1,0,0:0:0:0:
267,92,243714,6,2,B|219:94|219:94|152:66|152:66|42:76,1,168.000001602173,6|0,0:0|0:0,0:0:0:0:
18,216,244137,1,2,1:3:0:0:
138,332,244348,2,2,B|251:384|383:325|423:210,1,336.000003204346,6|0,0:0|0:0,0:0:0:0:
256,192,244983,1,2,1:3:0:0:
18,216,245194,1,0,0:0:0:0:
256,192,245405,1,4,0:0:0:0:
129,81,245617,1,0,0:0:0:0:
129,81,245723,1,0,0:0:0:0:
129,81,245828,2,0,L|96:249,1,168.000001602173,2|0,1:3|0:0,0:0:0:0:
256,192,246251,1,0,0:0:0:0:
383,303,246463,1,0,0:0:0:0:
383,303,246568,1,0,0:0:0:0:
383,303,246674,2,0,L|416:135,1,168.000001602173,2|0,1:3|0:0,0:0:0:0:
256,192,247097,6,2,B|245:247|245:247|186:306|186:306|174:369,1,192,6|0,1:1|0:0,0:0:0:0:
77,192,247520,1,2,1:3:0:0:
383,302,247731,2,2,B|384:165|290:54|168:22,1,384,6|0,0:0|0:0,0:0:0:0:
77,192,248366,2,2,L|16:373,1,192,2|0,1:3|0:0,0:0:0:0:
383,302,248789,1,6,1:0:0:0:
383,302,249000,2,2,B|402:246|402:246|456:192|456:192|479:116,1,192,2|2,1:1|1:3,0:0:0:0:
81,88,249423,2,2,B|35:184|102:305|236:308|301:231,1,384,6|0,0:0|0:0,0:0:0:0:
366,47,250057,1,2,1:3:0:0:
200,146,250269,1,0,0:0:0:0:
367,239,250480,6,2,B|326:315|244:352|166:341,1,192,6|0,0:0|0:0,0:0:0:0:
47,244,250903,1,2,1:3:0:0:
239,239,251115,2,2,B|280:315|362:352|440:341,2,192,6|0|0,0:0|0:0|0:0,0:0:0:0:
405,143,251749,1,2,1:3:0:0:
107,143,251960,1,0,1:3:0:0:
256,192,252172,12,4,253863,0:0:0:0:
256,192,254498,5,0,0:0:0:0:
112,144,255132,1,0,0:0:0:0:
400,240,255343,1,4,0:0:0:0:
